Anguish - Angoscia (2015).H264.italian.english.Ac3-5.1.MIRCrew

  • Category Movies
  • Type h.264/x264
  • Language English
  • Total size 1.3 GB
  • Uploaded By robbyrs
  • Downloads 239
  • Last checked 29 minutes ago
  • Date uploaded 1 week ago
  • Seeders 83
  • Leechers 22

Infohash : 1AD177FEB96617BA57BEDE45DF929ED63D363462

Anguish - Angoscia (2015).H264.italian.english.Ac3-5.1.MIRCrew


NO FOUND ONLY ORIGINAL RELEASE





My release is always in double track audio italian and Original audio
for select it use VLC or dvd player home
not use wmp

Angoscia - Anguish (2015)







GENERE: Drammatico, Horror
ANNO: 2015
REGIA: Sonny Mallhi
PAESE: USA
DISTRIBUZIONE: Twelve Entertainment
SCENEGGIATURA: Sonny Mallhi
FOTOGRAFIA: Amanda Treyz
MONTAGGIO: Andrew Coutts, Matt Diezel, Felix Pineiro
MUSICHE: James Curd
PRODUZIONE: Anguish Film



Ryan Simpkins, Karina Logue, Annika Marks, Cliff Chamberlain, Ryan O'Nan, Amberley Gridley, Paulina Olszynski



la protagonista è una giovane adolescente, Tess, interpretata dalla sorprendente Ryan Simpkins che soffre fin da piccola di depressione e disturbi comportamentali. In Angoscia il progressivo scivolamento nel tunnel popolato di ombre e di incubi avviene senza facili effetti speciali, senza sbalzi di volume, senza teste che girano su se stesse a 360°..................



A girl, Tess, is diagnosed with an identity disorder that may actually be channeling an evil, dead spirit inside of her.









General
Unique ID : 36600659919293103250175824297313049019 (0x1B8907DB732DEAE8580513A3374219BB)
Complete name : Angoscia (2015).ita.eng.MIRCrew.mkv
Format : Matroska
Format version : Version 2
File size : 1.32 GiB
Duration : 1h 31mn
Overall bit rate : 2 061 Kbps
Movie name : MIRCrew
Encoded date : UTC 2017-12-02 14:15:32
Writing application : Lavf54.63.100
Writing library : Lavf54.63.100

Video
ID : 1
Format : AVC
Format/Info : Advanced Video Codec
Format profile : [email protected]
Format settings, CABAC : Yes
Format settings, ReFrames : 2 frames
Codec ID : V_MPEG4/ISO/AVC
Duration : 1h 31mn
Bit rate : 1 300 Kbps
Width : 720 pixels
Height : 300 pixels
Display aspect ratio : 2.40:1
Frame rate mode : Variable
Frame rate : 23.976 fps
Color space : YUV
Chroma subsampling : 4:2:0
Bit depth : 8 bits
Scan type : Progressive
Bits/(Pixel*Frame) : 0.251
Stream size : 821 MiB (61%)
Writing library : x264 core 130 r2273
Encoding settings : cabac=1 / ref=2 / deblock=1:0:0 / analyse=0x1:0x131 / me=hex / subme=7 / psy=1 / psy_rd=1.00:0.00 / mixed_ref=0 / me_range=16 / chroma_me=1 / trellis=1 / 8x8dct=0 / cqm=0 / deadzone=21,11 / fast_pskip=1 / chroma_qp_offset=-2 / threads=3 / lookahead_threads=1 / sliced_threads=0 / nr=0 / decimate=1 / interlaced=0 / bluray_compat=0 / constrained_intra=0 / bframes=3 / b_pyramid=0 / b_adapt=1 / b_bias=0 / direct=3 / weightb=1 / open_gop=0 / weightp=2 / keyint=230 / keyint_min=23 / scenecut=40 / intra_refresh=0 / rc_lookahead=40 / rc=abr / mbtree=1 / bitrate=1300 / ratetol=1.0 / qcomp=0.60 / qpmin=10 / qpmax=69 / qpstep=4 / vbv_maxrate=24000 / vbv_bufsize=24000 / nal_hrd=none / ip_ratio=1.40 / aq=1:1.00
Language : Italian
Default : Yes
Forced : No
DURATION : 01:31:33.780000000
NUMBER_OF_FRAMES : 131719
NUMBER_OF_BYTES : 6570494928
_STATISTICS_WRITING_APP : mkvmerge v8.3.0 ('Over the Horizon') 64bit
_STATISTICS_WRITING_DATE_UTC : 2017-11-13 09:45:33
_STATISTICS_TAGS : BPS DURATION NUMBER_OF_FRAMES NUMBER_OF_BYTES

Audio #1
ID : 2
Format : AC-3
Format/Info : Audio Coding 3
Mode extension : CM (complete main)
Codec ID : A_AC3
Duration : 1h 31mn
Bit rate mode : Constant
Bit rate : 384 Kbps
Channel(s) : 6 channels
Channel positions : Front: L C R, Side: L R, LFE
Sampling rate : 48.0 KHz
Bit depth : 16 bits
Compression mode : Lossy
Delay relative to video : 1mn 5s
Stream size : 252 MiB (19%)
Title : AC3 iTA
Language : Italian
Default : Yes
Forced : No
DURATION : 01:31:37.312000000
NUMBER_OF_FRAMES : 171791
NUMBER_OF_BYTES : 153924736
_STATISTICS_WRITING_APP : mkvmerge v8.3.0 ('Over the Horizon') 64bit
_STATISTICS_WRITING_DATE_UTC : 2017-11-13 09:45:33
_STATISTICS_TAGS : BPS DURATION NUMBER_OF_FRAMES NUMBER_OF_BYTES

Audio #2
ID : 3
Format : AC-3
Format/Info : Audio Coding 3
Mode extension : CM (complete main)
Codec ID : A_AC3
Duration : 1h 31mn
Bit rate mode : Constant
Bit rate : 384 Kbps
Channel(s) : 6 channels
Channel positions : Front: L C R, Side: L R, LFE
Sampling rate : 48.0 KHz
Bit depth : 16 bits
Compression mode : Lossy
Delay relative to video : 1mn 5s
Stream size : 252 MiB (19%)
Title : AC3 ENG
Language : English
Default : No
Forced : No
DURATION : 01:31:32.832000000
NUMBER_OF_FRAMES : 171651
NUMBER_OF_BYTES : 307598592
_STATISTICS_WRITING_APP : mkvmerge v8.3.0 ('Over the Horizon') 64bit
_STATISTICS_WRITING_DATE_UTC : 2017-11-13 09:45:33
_STATISTICS_TAGS : BPS DURATION NUMBER_OF_FRAMES NUMBER_OF_BYTES

Menu
00:00:00.000 : :00:00:00.000
00:02:50.253 : :00:02:50.253
00:14:44.550 : :00:14:44.550
00:34:28.858 : :00:34:28.858
00:53:52.354 : :00:53:52.354
01:11:56.103 : :01:11:56.103
01:27:04.636 : :01:27:04.636





Files:

  • Angoscia (2015).ita.eng.MIRCrew.mkv (1.3 GB)

There are currently no comments. Feel free to leave one :)

Code:

  • udp://tracker.coppersurfer.tk:6969/announce
  • udp://tracker.opentrackr.org:1337/announce
  • udp://tracker.pirateparty.gr:6969/announce
  • udp://tracker.zer0day.to:1337/announce
  • udp://p4p.arenabg.com:1337/announce
  • udp://p4p.arenabg.ch:1337/announce
  • udp://eddie4.nl:6969/announce
  • udp://tracker.leechers-paradise.org:6969/announce